<?xml version="1.0" standalone="no"?>
<!DOCTYPE svg PUBLIC "-//W3C//DTD SVG 1.1//EN" "http://www.w3.org/Graphics/SVG/1.1/DTD/svg11.dtd" >
<svg>
<metadata>
Created by FontForge 20110222 at Mon Mar  7 08:28:13 2011
 By www-data
Steel Wolf (c) Copyright 1992 by Tom C. Lai.  All Rights Reserved.  
</metadata>
<defs>
<font id="Steelwolfuntitled" horiz-adv-x="0" >
  <font-face 
    font-family="Steelwolfuntitled"
    font-weight="400"
    font-stretch="normal"
    units-per-em="1000"
    panose-1="0 0 0 0 0 0 0 0 0 0"
    ascent="800"
    descent="-200"
    x-height="619"
    cap-height="619"
    bbox="-167 -143 821 762"
    underline-thickness="50"
    underline-position="-55"
    unicode-range="U+0020-2561"
  />
    <missing-glyph />
    <glyph glyph-name="space" unicode=" " horiz-adv-x="500" 
 />
    <glyph glyph-name="exclam" unicode="!" horiz-adv-x="190" 
d="M0 0v143h143v-143h-143zM0 190v429h143v-429h-143z" />
    <glyph glyph-name="quotedbl" unicode="&#x22;" horiz-adv-x="286" 
d="M0 619v143h95v-143h-95zM143 619v143h95v-143h-95z" />
    <glyph glyph-name="numbersign" unicode="#" horiz-adv-x="500" 
 />
    <glyph glyph-name="dollar" unicode="$" horiz-adv-x="500" 
 />
    <glyph glyph-name="percent" unicode="%" horiz-adv-x="500" 
 />
    <glyph glyph-name="ampersand" unicode="&#x26;" horiz-adv-x="500" 
 />
    <glyph glyph-name="quotesingle" unicode="'" horiz-adv-x="143" 
d="M0 619v143h95v-143h-95z" />
    <glyph glyph-name="parenleft" unicode="(" horiz-adv-x="286" 
d="M190 -143q-39 0 -72 15q-31 11 -62 42q-27 27 -42 61q-5 15 -8 25q-6 23 -6 48v523q0 20 3 37.5t11 35.5q13 31 42 62q26 26 61 41q18 8 35 11.5t38 3.5h48v-143h-48q-6 0 -14 -4l-16 -11q-8 -6 -12 -16l-5 -17v-523q0 -10 3.5 -18t11.5 -16l15 -10l17 -4h48v-143h-48z
" />
    <glyph glyph-name="parenright" unicode=")" horiz-adv-x="286" 
d="M0 0h48l8 1l8 2l8 4l8 7q6 5 11 15l4 19v523q0 9 -3.5 17.5t-13.5 15.5q-6 6 -16 11l-14 4h-48v143h48q41 0 72 -14q31 -11 62 -42q26 -26 41 -62q8 -18 11.5 -35t3.5 -38v-523q0 -41 -14 -72q-11 -31 -42 -62q-26 -26 -61 -41q-18 -8 -35 -11.5t-38 -3.5l-48 -1v143z
" />
    <glyph glyph-name="asterisk" unicode="*" horiz-adv-x="500" 
 />
    <glyph glyph-name="plus" unicode="+" horiz-adv-x="500" 
 />
    <glyph glyph-name="comma" unicode="," horiz-adv-x="500" 
 />
    <glyph glyph-name="hyphen" unicode="-" horiz-adv-x="500" 
 />
    <glyph glyph-name="period" unicode="." horiz-adv-x="190" 
d="M0 0v143h143v-143h-143z" />
    <glyph glyph-name="slash" unicode="/" horiz-adv-x="421" 
d="M221 714h148l-223 -833h-147z" />
    <glyph glyph-name="zero" unicode="0" horiz-adv-x="619" 
d="M118 14q-31 13 -60 41t-44 62q-5 15 -8 25q-6 23 -6 48v239q0 41 13.5 72t42.5 62q26 26 61 41q18 8 35 11.5t38 3.5h191q41 0 72 -14q31 -11 62 -42q26 -26 41 -61q8 -18 11.5 -35t3.5 -38v-239q0 -20 -3 -37.5t-11 -35.5q-11 -31 -42 -62q-12 -12 -27.5 -22.5
t-32.5 -18.5q-19 -7 -36.5 -10.5t-37.5 -3.5h-191q-41 0 -72 14zM399 146q9 3 16 10l10 14l4 20v239q0 9 -3.5 17t-12.5 15q-5 6 -15 11l-17 4h-191q-6 0 -14 -4l-16 -11q-7 -6 -12 -15l-5 -17v-239q0 -9 3.5 -17t11.5 -16l15 -10l17 -4h191z" />
    <glyph glyph-name="one" unicode="1" horiz-adv-x="333" 
d="M95 619q38 0 73 -15q33 -12 62 -40.5t42.5 -62.5t13.5 -72v-429h-143v429q0 11 -4 19q-3 10 -10 15q-5 6 -16 10l-18 3h-95v143h95z" />
    <glyph glyph-name="two" unicode="2" horiz-adv-x="619" 
d="M173 235q-8 -3 -16 -11l-10 -15l-4 -19l3 -18l10 -16q6 -6 15 -9l19 -4h379v-143h-379q-41 0 -72 13.5t-60 41.5t-44 62q-5 15 -8 25q-6 23 -6 48q0 20 3 37.5t11 35.5q13 31 42 62q26 26 61 41q18 8 35 11.5t38 3.5h187l17 3q9 3 16 11q6 5 11 15l4 19l-3 17
q-3 9 -11 16l-15 10l-19 4h-381v143h381q20 0 37.5 -3t35.5 -11q31 -11 62 -42q26 -26 41 -61q8 -18 11.5 -35t3.5 -38q0 -20 -3 -37.5t-11 -35.5q-11 -31 -40.5 -60.5t-63.5 -43.5q-15 -5 -31.5 -9.5t-41.5 -4.5h-187z" />
    <glyph glyph-name="three" unicode="3" horiz-adv-x="619" 
d="M381 143l18 3q9 3 16 10l10 14l4 20l-3 18q-3 9 -11 16l-15 10l-19 4h-357v143h351l18 3q9 3 16 11l10 15l4 19l-3 17q-3 9 -11 16l-15 10l-19 4h-375v143h370q20 0 37.5 -3t35.5 -11q31 -11 62 -42q26 -26 41 -61q8 -18 11.5 -35t3.5 -38q0 -32 -9.5 -60.5t-30.5 -55.5
l20 -27l16 -30l10 -32l4 -34q0 -20 -3 -37.5t-11 -35.5q-11 -31 -42 -62q-12 -12 -27.5 -22.5t-32.5 -18.5q-19 -7 -36.5 -10.5t-37.5 -3.5h-381v143h381z" />
    <glyph glyph-name="four" unicode="4" horiz-adv-x="583" 
d="M0 381l194 194q20 20 47 32q15 6 27.5 9t29.5 3q30 0 53.5 -10.5t45.5 -34.5q21 -20 31 -46q5 -11 8.5 -22.5t3.5 -29.5v-95h96v-143h-96v-238h-142v238h-298v143zM296 439q-3 5 -5 6l-6 2l-8 2l-2 4l-4 -3l-8 -8l-61 -61h96v48q0 7 -2 10z" />
    <glyph glyph-name="five" unicode="5" horiz-adv-x="619" 
d="M0 238v381h570v-143h-427v-95h233q20 0 37.5 -3t35.5 -11q31 -11 62 -42q26 -26 41 -62q8 -18 11.5 -35t3.5 -38q0 -41 -14 -72q-11 -31 -40.5 -60.5t-63.5 -43.5q-15 -5 -31.5 -9.5t-41.5 -4.5h-378v143h378l18 3q9 3 16 10l10 14l4 20l-3 18q-3 9 -11 16l-15 10l-19 4
h-376z" />
    <glyph glyph-name="six" unicode="6" horiz-adv-x="619" 
d="M564 476h-374q-6 0 -14 -4l-16 -11q-8 -5 -13 -15l-4 -17v-239q0 -10 3.5 -18.5t10.5 -15.5l16 -10l17 -3h191q11 0 19 3.5t14.5 10t11.5 16.5l3 17q0 11 -3.5 19t-9.5 14.5t-17 11.5l-18 3h-191v143h191q39 0 74 -15q34 -12 60.5 -39.5t41 -62.5t14.5 -74q0 -38 -15 -73
q-12 -34 -40.5 -61.5t-62.5 -41.5t-72 -14h-191q-20 0 -37.5 3t-35.5 11q-32 13 -60.5 42t-42.5 62.5t-14 71.5v239q0 20 3 37.5t11 35.5q13 32 42 61t62.5 42.5t71.5 13.5h374v-143z" />
    <glyph glyph-name="seven" unicode="7" horiz-adv-x="619" 
d="M381 619q41 0 72 -14q31 -11 62 -42q26 -26 41 -61q8 -18 11.5 -35t3.5 -38v-429h-142v429l-3 17q-3 9 -11 16l-15 10l-19 4h-381v143h381z" />
    <glyph glyph-name="eight" unicode="8" horiz-adv-x="581" 
d="M443 605q31 -11 62 -42q26 -26 41 -61q8 -18 11.5 -35t3.5 -38q0 -32 -9.5 -60.5t-30.5 -55.5l20 -27l16 -30l10 -32l4 -34q0 -20 -3 -37.5t-11 -35.5q-11 -31 -42 -62q-12 -12 -27.5 -22.5t-32.5 -18.5q-19 -7 -36.5 -10.5t-37.5 -3.5h-193q-41 0 -72 13.5t-59.5 41
t-43.5 62.5q-5 15 -8 25q-6 23 -6 48l1 16l1 17l4 16l6 16l15 29q8 14 22 29q-9 12 -15.5 24t-14 33.5t-10.5 58.5q0 41 13.5 72t42.5 62q26 26 62 41t73 15h171q20 0 37.5 -3t35.5 -11zM399 146q9 3 16 10l10 14l4 20l-3 18q-3 9 -11 16l-15 10l-19 4h-189l-18 -3
q-8 -3 -16 -11l-10 -15l-4 -19l3 -17q3 -8 11 -16l15 -10l19 -4h189zM176 473l-16 -10l-10 -15l-4 -19l3 -19l9 -16q6 -6 15 -9l21 -4h181l17 3q9 3 16 11q6 5 11 15l4 19q0 22 -12.5 34.5t-35.5 12.5h-181z" />
    <glyph glyph-name="nine" unicode="9" horiz-adv-x="619" 
d="M0 143h374q6 0 14 4l15 10q9 7 12.5 14.5t5.5 18.5v239q0 11 -3.5 18.5t-11.5 14.5q-5 6 -15 11l-17 3h-191q-10 0 -18.5 -3.5t-15.5 -10.5l-10 -15l-3 -18q0 -10 3.5 -18.5t10.5 -15.5l16 -11l17 -3h191v-143h-191q-20 0 -37.5 3t-35.5 11q-32 13 -60.5 42t-42.5 62
q-13 36 -13 73q0 20 3 37.5t11 35.5q12 34 41 61q29 29 62.5 42.5t71.5 13.5h191q39 0 74 -15q34 -12 60 -41q29 -28 42.5 -62t13.5 -72v-239q0 -38 -15 -73q-12 -34 -40.5 -61.5t-62.5 -41.5t-72 -14h-374v143z" />
    <glyph glyph-name="colon" unicode=":" horiz-adv-x="500" 
 />
    <glyph glyph-name="semicolon" unicode=";" horiz-adv-x="500" 
 />
    <glyph glyph-name="less" unicode="&#x3c;" horiz-adv-x="869" 
d="M310 619h202l-310 -309l310 -310h-202l-310 310z" />
    <glyph glyph-name="equal" unicode="=" horiz-adv-x="500" 
 />
    <glyph glyph-name="greater" unicode="&#x3e;" horiz-adv-x="500" 
 />
    <glyph glyph-name="question" unicode="?" horiz-adv-x="500" 
 />
    <glyph glyph-name="at" unicode="@" horiz-adv-x="500" 
 />
    <glyph glyph-name="A" unicode="A" horiz-adv-x="869" 
d="M575 575q20 20 47 32q15 6 27.5 9t29.5 3q30 0 53 -11q23 -9 45.5 -30t33 -46.5t10.5 -55.5v-476h-142v238h-239l-238 -238h-202zM677 439q-3 5 -5 6l-6 2l-8 2l-2 4l-4 -3l-8 -8l-61 -61h96v48q0 7 -2 10z" />
    <glyph glyph-name="B" unicode="B" horiz-adv-x="714" 
d="M0 619h465q20 0 37.5 -3t35.5 -11q31 -11 62 -42q26 -26 41 -61q8 -18 11.5 -35t3.5 -38q0 -33 -10 -62t-29 -54l20 -27l16 -31l10 -32l4 -33q0 -41 -14 -72q-11 -31 -40.5 -60.5t-63.5 -43.5q-15 -5 -31.5 -9.5t-41.5 -4.5h-476v619zM521 208q-3 9 -11 16l-15 10l-19 4
h-334l1 -95h333l18 3q9 3 16 10l10 14l4 20zM143 476v-95h327l18 3q9 3 16 11l10 15l4 19l-3 17q-3 9 -11 16l-15 10l-19 4h-327z" />
    <glyph glyph-name="C" unicode="C" horiz-adv-x="619" 
d="M190 0q-41 0 -72 13.5t-60 41.5t-44 62q-5 15 -8 25q-6 23 -6 48v239q0 41 13.5 72t42.5 62q26 26 61 41q18 8 35 11.5t38 3.5h381v-143h-381l-8 -1l-8 -2l-8 -5l-8 -6l-11 -15l-4 -18v-239l3 -18l10 -16q6 -6 15 -9l19 -4h381v-143h-381z" />
    <glyph glyph-name="D" unicode="D" horiz-adv-x="714" 
d="M0 619h476q20 0 37.5 -3t35.5 -11q31 -11 62 -42q26 -26 41 -61q8 -18 11.5 -35t3.5 -38v-239q0 -41 -14 -72q-11 -31 -40.5 -60.5t-63.5 -43.5q-15 -5 -31.5 -9.5t-41.5 -4.5h-476v619zM476 143l18 3q9 3 16 10l10 14l4 20v239q0 9 -3.5 17.5t-11.5 15.5q-5 6 -16 10
l-17 4h-333v-333h333z" />
    <glyph glyph-name="E" unicode="E" horiz-adv-x="619" 
d="M147 173q3 -8 11 -16l15 -10l17 -4h381v-143h-381q-41 0 -72 13.5t-60 41.5t-44 62q-5 15 -8 25q-6 23 -6 48v239q0 41 13.5 72t42.5 62q26 26 61 41q18 8 35 11.5t38 3.5h375v-143h-375l-18 -3q-8 -3 -15 -10t-10 -15l-4 -19v-48h405v-143h-405v-48q0 -9 4 -17z" />
    <glyph glyph-name="F" unicode="F" horiz-adv-x="612" 
d="M0 429q0 41 13.5 72t42.5 62q26 26 61 41q18 8 35 11.5t38 3.5h375v-143h-375l-18 -3q-8 -3 -15 -10t-10 -15l-4 -19v-48h405v-143h-405v-238h-143v429z" />
    <glyph glyph-name="G" unicode="G" horiz-adv-x="762" 
d="M707 476h-517q-6 0 -14 -4l-16 -11q-8 -5 -13 -15l-4 -17v-239q0 -10 3.5 -18.5t10.5 -15.5l16 -10l17 -3h334q11 0 19 4l14 9q6 6 11 16l3 18q0 11 -3.5 19t-9.5 14.5t-17 11.5l-17 3h-238v143h238q39 0 74 -15q34 -12 60.5 -39.5t41 -62.5t14.5 -74q0 -38 -15 -73
q-12 -34 -40.5 -61.5t-62.5 -41.5t-72 -14h-334q-20 0 -37.5 3t-35.5 11q-32 13 -60.5 42t-42.5 62.5t-14 71.5v239q0 20 3 37.5t11 35.5q13 32 42 61t62.5 42.5t71.5 13.5h517v-143z" />
    <glyph glyph-name="H" unicode="H" horiz-adv-x="667" 
d="M143 238v-238h-143v619h143v-238h333v238h143v-619h-143v238h-333z" />
    <glyph glyph-name="I" unicode="I" horiz-adv-x="190" 
d="M0 0v619h143v-619h-143z" />
    <glyph glyph-name="J" unicode="J" horiz-adv-x="762" 
d="M714 190q0 -20 -3 -37.5t-11 -35.5q-11 -31 -42 -62q-12 -12 -27.5 -22.5t-32.5 -18.5q-19 -7 -36.5 -10.5t-37.5 -3.5h-334q-41 0 -72 13.5t-60 41.5t-44 62q-5 15 -8 25q-6 23 -6 48v143h143v-143q0 -9 3.5 -17t11.5 -16l15 -10l17 -4h334l18 3q8 3 15 10l10 15l4 19
v429h143v-429z" />
    <glyph glyph-name="K" unicode="K" horiz-adv-x="714" 
d="M143 0h-143v619h143v-238h286l17 3q9 3 16 11l10 15l4 19v190h143v-190q0 -24 -6 -48q-2 -8 -4 -15q-5 -14 -13 -28q14 -10 29 -30q4 -5 10 -14.5t13.5 -23.5t12.5 -37l6 -43v-190h-143v190l-3 18q-3 9 -11 16l-15 10l-19 4h-333v-238z" />
    <glyph glyph-name="L" unicode="L" horiz-adv-x="619" 
d="M190 0q-20 0 -37.5 3t-35.5 11q-32 13 -60.5 42t-42.5 62.5t-14 71.5v429h143v-429q0 -10 4 -19l9 -15l16 -10l18 -3h381v-143h-381z" />
    <glyph glyph-name="M" unicode="M" horiz-adv-x="762" 
d="M286 0v476h-143v-476h-143v619h524q41 0 72 -14q31 -11 62 -42q26 -26 41 -61q8 -18 11.5 -35t3.5 -38v-429h-143v429l-3 18q-3 9 -11 15l-14 10l-19 4h-95v-476h-143z" />
    <glyph glyph-name="N" unicode="N" horiz-adv-x="715" 
d="M0 429q0 41 13.5 72t42.5 62q26 26 61 41q18 8 35 11.5t38 3.5h286q20 0 37.5 -3t35.5 -11q31 -11 62 -42q26 -26 41 -61q8 -18 11.5 -35t3.5 -38v-429h-143v429q0 9 -3.5 17.5t-11.5 15.5q-5 6 -16 10l-17 4h-286l-18 -3q-8 -3 -15 -10t-10 -15l-4 -19v-429h-143v429z
" />
    <glyph glyph-name="O" unicode="O" horiz-adv-x="762" 
d="M118 14q-31 13 -60 41t-44 62q-5 15 -8 25q-6 23 -6 48v239q0 41 13.5 72t42.5 62q26 26 61 41q18 8 35 11.5t38 3.5h334q41 0 72 -14q31 -11 62 -42q26 -26 41 -61q8 -18 11.5 -35t3.5 -38v-239q0 -20 -3 -37.5t-11 -35.5q-11 -31 -42 -62q-12 -12 -27.5 -22.5
t-32.5 -18.5q-19 -7 -36.5 -10.5t-37.5 -3.5h-334q-41 0 -72 14zM542 146q8 3 15 10l10 15l4 19v239q0 9 -3.5 17.5t-11.5 15.5l-15 10l-17 4h-334q-6 0 -14 -4l-16 -11q-7 -6 -12 -15l-5 -17v-239q0 -9 3.5 -17t11.5 -16l15 -10l17 -4h334z" />
    <glyph glyph-name="P" unicode="P" horiz-adv-x="714" 
d="M143 0h-143v619h476q20 0 37.5 -3t35.5 -11q31 -11 62 -42q26 -26 41 -62.5t15 -73.5q0 -41 -13.5 -72.5t-43.5 -61.5q-26 -26 -61 -41q-15 -5 -31.5 -9.5t-41.5 -4.5h-333v-238zM143 381h333l17 3q9 3 16 11q6 5 11 15l4 19l-3 17q-3 9 -11 16l-15 10l-19 4h-333v-95z
" />
    <glyph glyph-name="Q" unicode="Q" horiz-adv-x="762" 
d="M489 0h-299q-41 0 -72 13.5t-60 41.5t-44 62q-5 15 -8 25q-6 23 -6 48v239q0 41 13.5 72t42.5 62q26 26 61 41q18 8 35 11.5t38 3.5h334q41 0 72 -14q31 -11 62 -42q26 -26 41 -61q8 -18 11.5 -35t3.5 -38v-239q0 -22 -6 -45q-2 -10 -6 -20.5t-10 -22.5
q-10 -19 -24 -35.5t-35 -31.5l75 -130h-164zM571 429q0 9 -3.5 17.5t-11.5 15.5l-15 10l-17 4h-334q-6 0 -14 -4l-16 -11q-7 -6 -12 -15l-5 -17v-239q0 -9 3.5 -17t11.5 -16l15 -10l17 -4h217l-27 47h164l17 -29l7 12l3 17v239z" />
    <glyph glyph-name="R" unicode="R" horiz-adv-x="714" 
d="M465 619q20 0 37.5 -3t35.5 -11q31 -11 62 -42q26 -26 41 -61q8 -18 11.5 -35t3.5 -38v-11q0 -7 -2 -22.5t-7 -28.5q-4 -15 -11 -27l-15 -27q22 -24 34 -56q4 -12 8 -27.5t4 -39.5v-190h-143v190l-3 17l-9 15l-13 11l-16 5h-340v-239h-143v620h465zM143 476v-95h327l18 3
q9 3 16 11l10 15l4 19l-3 17q-3 9 -11 16l-15 10l-19 4h-327z" />
    <glyph glyph-name="S" unicode="S" horiz-adv-x="762" 
d="M190 238q-20 0 -37.5 3t-35.5 11q-32 13 -60.5 42t-42.5 62.5t-14 72.5q0 20 3 37.5t11 35.5q13 32 42 61t62.5 42.5t71.5 13.5h524v-143h-524q-10 0 -18.5 -3.5t-15.5 -10.5l-10 -15l-3 -18q0 -10 3.5 -18.5t10.5 -15.5l16 -11l17 -3h330q20 0 37.5 -3t35.5 -11
q32 -13 61.5 -42t43 -63t13.5 -73q0 -38 -15 -73q-12 -34 -40.5 -61.5t-62.5 -41.5q-36 -13 -73 -13l-521 -1v144h521q11 0 19 3.5t14.5 10t11.5 16.5l3 17q0 11 -3.5 19t-9.5 14.5t-17 11.5l-18 3h-330z" />
    <glyph glyph-name="T" unicode="T" horiz-adv-x="667" 
d="M0 476v143h619v-143h-238v-476h-143v476h-238z" />
    <glyph glyph-name="U" unicode="U" horiz-adv-x="714" 
d="M667 190q0 -41 -14 -72q-11 -31 -40.5 -60.5t-63.5 -43.5q-15 -5 -31.5 -9.5t-41.5 -4.5h-286q-41 0 -72 13.5t-60 41.5t-44 62q-5 15 -8 25q-6 23 -6 48v428h143v-428q0 -9 3.5 -17t11.5 -16l15 -10l17 -4h286l18 3q9 3 16 10l10 14l4 20v429h143v-429z" />
    <glyph glyph-name="V" unicode="V" horiz-adv-x="869" 
d="M821 619l-575 -575q-21 -21 -48 -33q-21 -8 -55 -11q-30 0 -54 10.5t-45.5 31t-33.5 46.5q-10 27 -10 55v476h143v-429q0 -10 5 -15l15 -5l1 -4l6 4l7 7l442 442h202z" />
    <glyph glyph-name="W" unicode="W" horiz-adv-x="762" 
d="M429 143h95l18 3q8 3 15 10l10 15l4 19v429h143v-429q0 -20 -3 -37.5t-11 -35.5q-11 -31 -42 -62q-12 -12 -27.5 -22.5t-32.5 -18.5q-19 -7 -36.5 -10.5t-37.5 -3.5h-334q-41 0 -72 13.5t-60 41.5t-44 62q-5 15 -8 25q-6 23 -6 48v429h143v-429q0 -9 3.5 -17t11.5 -16
l15 -10l17 -4h96v476h143v-476z" />
    <glyph glyph-name="X" unicode="X" horiz-adv-x="762" 
d="M182 237l-8 -2l-8 -5l-8 -6l-11 -15l-4 -19v-190h-143v190q0 35 10.5 65.5t31.5 54.5q-19 22 -32 54q-4 13 -7 30.5t-3 34.5v190h143v-190q0 -10 3.5 -18t11.5 -16l15 -10l17 -4h334l17 3q9 3 16 11l10 15l4 19v190h143v-190q0 -35 -11 -64q-9 -29 -32 -55q20 -23 31 -55
q6 -18 9 -32t3 -33v-190h-143v190l-3 19q-3 9 -11 15l-14 10l-19 4h-334z" />
    <glyph glyph-name="Y" unicode="Y" horiz-adv-x="762" 
d="M286 0v238h-96q-41 0 -72 13.5t-60 41.5t-44 62q-7 19 -10.5 36t-3.5 38v190h143v-190q0 -10 3.5 -18t11.5 -16l15 -10l17 -4h334l17 3q9 3 16 11l10 15l4 19v190h143v-190q0 -20 -3 -37.5t-11 -35.5q-12 -33 -40 -61t-62 -43q-19 -7 -36.5 -10.5t-37.5 -3.5h-95v-238
h-143z" />
    <glyph glyph-name="Z" unicode="Z" horiz-adv-x="762" 
d="M-2 476v143h590q24 0 45.5 -8.5t38 -25.5t26 -39.5t9.5 -45.5q0 -20 -5 -35q-3 -15 -15 -30l-24 -25l-33 -22l-429 -245h513v-143l-601 -1q-23 0 -45.5 8.5t-39 25.5t-24.5 38q-3 8 -6 19.5t-3 27.5q0 19 3.5 34.5t13 29.5t21.5 24.5t29 18.5l433 251h-497z" />
    <glyph glyph-name="bracketleft" unicode="[" horiz-adv-x="286" 
d="M0 -143v905h238v-143h-95v-619h95v-143h-238z" />
    <glyph glyph-name="backslash" unicode="\" horiz-adv-x="421" 
d="M223 -119l-223 833h148l222 -833h-147z" />
    <glyph glyph-name="bracketright" unicode="]" horiz-adv-x="286" 
d="M0 0h95v619h-95v143h238v-905h-238v143z" />
    <glyph glyph-name="asciicircum" unicode="^" horiz-adv-x="500" 
 />
    <glyph glyph-name="underscore" unicode="_" horiz-adv-x="500" 
 />
    <glyph glyph-name="grave" unicode="`" horiz-adv-x="500" 
 />
    <glyph glyph-name="a" unicode="a" horiz-adv-x="762" 
d="M143 154v-153h-143v192l193 332q13 24 29.5 40.5t38 29t40 17t30.5 6.5t26 2q26 0 52 -5.5t45 -17.5q19 -9 36.5 -27t32.5 -45l191 -332v-192h-143v155l-47 82h-332zM399 454l-8 11l-9 7l-11 3l-14 2h-10l-7 1l-8 -1l-5 -3l-4 -6l-6 -14l-42 -73h165z" />
    <glyph glyph-name="b" unicode="b" horiz-adv-x="714" 
d="M0 619h465q20 0 37.5 -3t35.5 -11q31 -11 62 -42q26 -26 41 -61q8 -18 11.5 -35t3.5 -38q0 -33 -10 -62t-29 -54l20 -27l16 -31l10 -32l4 -33q0 -41 -14 -72q-11 -31 -40.5 -60.5t-63.5 -43.5q-15 -5 -31.5 -9.5t-41.5 -4.5h-476v619zM521 208q-3 9 -11 16l-15 10l-19 4
h-334l1 -95h333l18 3q9 3 16 10l10 14l4 20zM143 476v-95h327l18 3q9 3 16 11l10 15l4 19l-3 17q-3 9 -11 16l-15 10l-19 4h-327z" />
    <glyph glyph-name="c" unicode="c" horiz-adv-x="619" 
d="M190 0q-41 0 -72 13.5t-60 41.5t-44 62q-5 15 -8 25q-6 23 -6 48v239q0 41 13.5 72t42.5 62q26 26 61 41q18 8 35 11.5t38 3.5h381v-143h-381l-8 -1l-8 -2l-8 -5l-8 -6l-11 -15l-4 -18v-239l3 -18l10 -16q6 -6 15 -9l19 -4h381v-143h-381z" />
    <glyph glyph-name="d" unicode="d" horiz-adv-x="714" 
d="M0 619h476q20 0 37.5 -3t35.5 -11q31 -11 62 -42q26 -26 41 -61q8 -18 11.5 -35t3.5 -38v-239q0 -41 -14 -72q-11 -31 -40.5 -60.5t-63.5 -43.5q-15 -5 -31.5 -9.5t-41.5 -4.5h-476v619zM476 143l18 3q9 3 16 10l10 14l4 20v239q0 9 -3.5 17.5t-11.5 15.5q-5 6 -16 10
l-17 4h-333v-333h333z" />
    <glyph glyph-name="e" unicode="e" horiz-adv-x="619" 
d="M147 173q3 -8 11 -16l15 -10l17 -4h381v-143h-381q-41 0 -72 13.5t-60 41.5t-44 62q-5 15 -8 25q-6 23 -6 48v239q0 41 13.5 72t42.5 62q26 26 61 41q18 8 35 11.5t38 3.5h375v-143h-375l-18 -3q-8 -3 -15 -10t-10 -15l-4 -19v-48h405v-143h-405v-48q0 -9 4 -17z" />
    <glyph glyph-name="f" unicode="f" horiz-adv-x="612" 
d="M0 429q0 41 13.5 72t42.5 62q26 26 61 41q18 8 35 11.5t38 3.5h375v-143h-375l-18 -3q-8 -3 -15 -10t-10 -15l-4 -19v-48h405v-143h-405v-238h-143v429z" />
    <glyph glyph-name="g" unicode="g" horiz-adv-x="762" 
d="M707 476h-517q-6 0 -14 -4l-16 -11q-8 -5 -13 -15l-4 -17v-239q0 -10 3.5 -18.5t10.5 -15.5l16 -10l17 -3h334q11 0 19 4l14 9q6 6 11 16l3 18q0 11 -3.5 19t-9.5 14.5t-17 11.5l-17 3h-238v143h238q39 0 74 -15q34 -12 60.5 -39.5t41 -62.5t14.5 -74q0 -38 -15 -73
q-12 -34 -40.5 -61.5t-62.5 -41.5t-72 -14h-334q-20 0 -37.5 3t-35.5 11q-32 13 -60.5 42t-42.5 62.5t-14 71.5v239q0 20 3 37.5t11 35.5q13 32 42 61t62.5 42.5t71.5 13.5h517v-143z" />
    <glyph glyph-name="h" unicode="h" horiz-adv-x="667" 
d="M143 238v-238h-143v619h143v-238h333v238h143v-619h-143v238h-333z" />
    <glyph glyph-name="i" unicode="i" horiz-adv-x="190" 
d="M0 0v619h143v-619h-143z" />
    <glyph glyph-name="j" unicode="j" horiz-adv-x="762" 
d="M714 190q0 -20 -3 -37.5t-11 -35.5q-11 -31 -42 -62q-12 -12 -27.5 -22.5t-32.5 -18.5q-19 -7 -36.5 -10.5t-37.5 -3.5h-334q-41 0 -72 13.5t-60 41.5t-44 62q-5 15 -8 25q-6 23 -6 48v143h143v-143q0 -9 3.5 -17t11.5 -16l15 -10l17 -4h334l18 3q8 3 15 10l10 15l4 19
v429h143v-429z" />
    <glyph glyph-name="k" unicode="k" horiz-adv-x="714" 
d="M143 0h-143v619h143v-238h286l17 3q9 3 16 11l10 15l4 19v190h143v-190q0 -24 -6 -48q-2 -8 -4 -15q-5 -14 -13 -28q14 -10 29 -30q4 -5 10 -14.5t13.5 -23.5t12.5 -37l6 -43v-190h-143v190l-3 18q-3 9 -11 16l-15 10l-19 4h-333v-238z" />
    <glyph glyph-name="l" unicode="l" horiz-adv-x="619" 
d="M190 0q-20 0 -37.5 3t-35.5 11q-32 13 -60.5 42t-42.5 62.5t-14 71.5v429h143v-429q0 -10 4 -19l9 -15l16 -10l18 -3h381v-143h-381z" />
    <glyph glyph-name="m" unicode="m" horiz-adv-x="762" 
d="M286 0v476h-96l-17 -3q-8 -3 -16 -11l-10 -14l-4 -19v-429h-143v429q0 41 13.5 72t42.5 62q26 26 61 41q18 8 35 11.5t38 3.5h334q41 0 72 -14q31 -11 62 -42q26 -26 41 -61q8 -18 11.5 -35t3.5 -38v-429h-143v429l-3 18q-3 9 -11 15l-14 10l-19 4h-95v-476h-143z" />
    <glyph glyph-name="n" unicode="n" horiz-adv-x="715" 
d="M0 429q0 41 13.5 72t42.5 62q26 26 61 41q18 8 35 11.5t38 3.5h286q20 0 37.5 -3t35.5 -11q31 -11 62 -42q26 -26 41 -61q8 -18 11.5 -35t3.5 -38v-429h-143v429q0 9 -3.5 17.5t-11.5 15.5q-5 6 -16 10l-17 4h-286l-18 -3q-8 -3 -15 -10t-10 -15l-4 -19v-429h-143v429z
" />
    <glyph glyph-name="o" unicode="o" horiz-adv-x="762" 
d="M118 14q-31 13 -60 41t-44 62q-5 15 -8 25q-6 23 -6 48v239q0 41 13.5 72t42.5 62q26 26 61 41q18 8 35 11.5t38 3.5h334q41 0 72 -14q31 -11 62 -42q26 -26 41 -61q8 -18 11.5 -35t3.5 -38v-239q0 -20 -3 -37.5t-11 -35.5q-11 -31 -42 -62q-12 -12 -27.5 -22.5
t-32.5 -18.5q-19 -7 -36.5 -10.5t-37.5 -3.5h-334q-41 0 -72 14zM542 146q8 3 15 10l10 15l4 19v239q0 9 -3.5 17.5t-11.5 15.5l-15 10l-17 4h-334q-6 0 -14 -4l-16 -11q-7 -6 -12 -15l-5 -17v-239q0 -9 3.5 -17t11.5 -16l15 -10l17 -4h334z" />
    <glyph glyph-name="p" unicode="p" horiz-adv-x="714" 
d="M143 0h-143v619h476q20 0 37.5 -3t35.5 -11q31 -11 62 -42q26 -26 41 -62.5t15 -73.5q0 -41 -13.5 -72.5t-43.5 -61.5q-26 -26 -61 -41q-15 -5 -31.5 -9.5t-41.5 -4.5h-333v-238zM143 381h333l17 3q9 3 16 11q6 5 11 15l4 19l-3 17q-3 9 -11 16l-15 10l-19 4h-333v-95z
" />
    <glyph glyph-name="q" unicode="q" horiz-adv-x="762" 
d="M489 0h-299q-41 0 -72 13.5t-60 41.5t-44 62q-5 15 -8 25q-6 23 -6 48v239q0 41 13.5 72t42.5 62q26 26 61 41q18 8 35 11.5t38 3.5h334q41 0 72 -14q31 -11 62 -42q26 -26 41 -61q8 -18 11.5 -35t3.5 -38v-239q0 -22 -6 -45q-2 -10 -6 -20.5t-10 -22.5
q-10 -19 -24 -35.5t-35 -31.5l75 -130h-164zM571 429q0 9 -3.5 17.5t-11.5 15.5l-15 10l-17 4h-334q-6 0 -14 -4l-16 -11q-7 -6 -12 -15l-5 -17v-239q0 -9 3.5 -17t11.5 -16l15 -10l17 -4h217l-27 47h164l17 -29l7 12l3 17v239z" />
    <glyph glyph-name="r" unicode="r" horiz-adv-x="714" 
d="M465 619q20 0 37.5 -3t35.5 -11q31 -11 62 -42q26 -26 41 -61q8 -18 11.5 -35t3.5 -38v-11q0 -7 -2 -22.5t-7 -28.5q-4 -15 -11 -27l-15 -27q22 -24 34 -56q4 -12 8 -27.5t4 -39.5v-190h-143v190l-3 17l-9 15l-13 11l-16 5h-340v-239h-143v620h465zM143 476v-95h327l18 3
q9 3 16 11l10 15l4 19l-3 17q-3 9 -11 16l-15 10l-19 4h-327z" />
    <glyph glyph-name="s" unicode="s" horiz-adv-x="762" 
d="M190 238q-20 0 -37.5 3t-35.5 11q-32 13 -60.5 42t-42.5 62.5t-14 72.5q0 20 3 37.5t11 35.5q13 32 42 61t62.5 42.5t71.5 13.5h524v-143h-524q-10 0 -18.5 -3.5t-15.5 -10.5l-10 -15l-3 -18q0 -10 3.5 -18.5t10.5 -15.5l16 -11l17 -3h330q20 0 37.5 -3t35.5 -11
q32 -13 61.5 -42t43 -63t13.5 -73q0 -38 -15 -73q-12 -34 -40.5 -61.5t-62.5 -41.5q-36 -13 -73 -13l-521 -1v144h521q11 0 19 3.5t14.5 10t11.5 16.5l3 17q0 11 -3.5 19t-9.5 14.5t-17 11.5l-18 3h-330z" />
    <glyph glyph-name="t" unicode="t" horiz-adv-x="667" 
d="M0 476v143h618v-143h-238v-477h-143v477h-237z" />
    <glyph glyph-name="u" unicode="u" horiz-adv-x="714" 
d="M667 190q0 -41 -14 -72q-11 -31 -40.5 -60.5t-63.5 -43.5q-15 -5 -31.5 -9.5t-41.5 -4.5h-286q-41 0 -72 13.5t-60 41.5t-44 62q-5 15 -8 25q-6 23 -6 48v428h143v-428q0 -9 3.5 -17t11.5 -16l15 -10l17 -4h286l18 3q9 3 16 10l10 14l4 20v429h143v-429z" />
    <glyph glyph-name="v" unicode="v" horiz-adv-x="762" 
d="M287 24q-43 -24 -97 -24q-24 0 -48 6t-46 18t-39 29q-6 7 -12.5 15t-18.5 27l-193 332v192h143v-152l174 -300l8 -12l8 -8l10 -2l14 -2l14 1l11 3l4 3l5 4l4 5l4 8l173 297v155h143v-192l-192 -332q-26 -45 -69 -71z" />
    <glyph glyph-name="w" unicode="w" horiz-adv-x="762" 
d="M429 143h95l18 3q8 3 15 10l10 15l4 19v429h143v-429q0 -20 -3 -37.5t-11 -35.5q-11 -31 -42 -62q-12 -12 -27.5 -22.5t-32.5 -18.5q-19 -7 -36.5 -10.5t-37.5 -3.5h-334q-41 0 -72 13.5t-60 41.5t-44 62q-5 15 -8 25q-6 23 -6 48v429h143v-429q0 -9 3.5 -17t11.5 -16
l15 -10l17 -4h96v476h143v-476z" />
    <glyph glyph-name="x" unicode="x" horiz-adv-x="762" 
d="M182 237l-8 -2l-8 -5l-8 -6l-11 -15l-4 -19v-190h-143v190q0 35 10.5 65.5t31.5 54.5q-19 22 -32 54q-4 13 -7 30.5t-3 34.5v190h143v-190q0 -10 3.5 -18t11.5 -16l15 -10l17 -4h334l17 3q9 3 16 11l10 15l4 19v190h143v-190q0 -35 -11 -64q-9 -29 -32 -55q20 -23 31 -55
q6 -18 9 -32t3 -33v-190h-143v190l-3 19q-3 9 -11 15l-14 10l-19 4h-334z" />
    <glyph glyph-name="y" unicode="y" horiz-adv-x="762" 
d="M286 0v238h-96q-41 0 -72 13.5t-60 41.5t-44 62q-7 19 -10.5 36t-3.5 38v190h143v-190q0 -10 3.5 -18t11.5 -16l15 -10l17 -4h334l17 3q9 3 16 11l10 15l4 19v190h143v-190q0 -20 -3 -37.5t-11 -35.5q-12 -33 -40 -61t-62 -43q-19 -7 -36.5 -10.5t-37.5 -3.5h-95v-238
h-143z" />
    <glyph glyph-name="z" unicode="z" horiz-adv-x="762" 
d="M-2 476v143h590q24 0 45.5 -8.5t38 -25.5t26 -39.5t9.5 -45.5q0 -20 -5 -35q-3 -15 -15 -30l-24 -25l-33 -22l-429 -245h513v-143l-601 -1q-23 0 -45.5 8.5t-39 25.5t-24.5 38q-3 8 -6 19.5t-3 27.5q0 19 3.5 34.5t13 29.5t21.5 24.5t29 18.5l433 251h-497z" />
    <glyph glyph-name="braceleft" unicode="{" horiz-adv-x="333" 
d="M238 -143q-39 0 -72 15q-31 11 -62 42q-27 27 -42 61q-5 15 -8 25q-6 23 -6 48v23v23q-2 11 -2 15q0 31 -6 66q-3 34 -12 60t-28 51v47q15 19 25 47q5 15 7 23.5t7 37.5l5 67l4 63q0 40 13 72t42 63q26 26 62 41t73 15h48v-143h-48l-17 -3q-8 -4 -15 -11l-10 -15l-6 -19
l-3 -81q0 -16 -2 -36.5t-5 -45.5q0 -21 -2.5 -32.5t-10.5 -33.5t-24 -31q13 -6 22 -30t14 -69l3 -42l3 -40l3 -41v-19t2 -21.5t5 -19.5t11 -15l14 -10l18 -4h48v-143h-48z" />
    <glyph glyph-name="bar" unicode="|" horiz-adv-x="190" 
d="M0 -143v905h143v-905h-143z" />
    <glyph glyph-name="braceright" unicode="}" horiz-adv-x="333" 
d="M0 0h48l16 3q9 4 14.5 10t11.5 24l5 41l3 59l7 75q0 18 3.5 35t11 36t23.5 28q-15 6 -23.5 28.5t-14.5 67.5l-4 41v15q-2 17 -2 26v15q0 4 -1 12t-1 13v16q-2 17 -2 26t-5 17q-3 9 -11 16q-5 6 -15 11l-16 4h-48v143h48q41 0 72 -14q31 -11 62 -42q26 -26 41 -62
q8 -18 11.5 -35t3.5 -38v-28.5t2 -33.5l6 -66q3 -34 12.5 -60.5t27.5 -49.5v-47q-9 -12 -12.5 -19.5t-13.5 -28.5q-8 -25 -13 -62l-5 -66l-4 -62q0 -41 -14 -72q-11 -31 -42 -62q-26 -26 -61 -41q-18 -8 -35 -11.5t-38 -3.5l-48 -1v143z" />
    <glyph glyph-name="asciitilde" unicode="~" horiz-adv-x="500" 
 />
    <glyph glyph-name="quotesinglbase" unicode="&#x201a;" 
 />
    <glyph glyph-name="florin" unicode="&#x192;" 
 />
    <glyph glyph-name="quotedblbase" unicode="&#x201e;" 
 />
    <glyph glyph-name="ellipsis" unicode="&#x2026;" 
 />
    <glyph glyph-name="dagger" unicode="&#x2020;" 
 />
    <glyph glyph-name="daggerdbl" unicode="&#x2021;" 
 />
    <glyph glyph-name="circumflex" unicode="&#x2c6;" 
 />
    <glyph glyph-name="perthousand" unicode="&#x2030;" 
 />
    <glyph glyph-name="Scaron" unicode="&#x160;" 
 />
    <glyph glyph-name="guilsinglleft" unicode="&#x2039;" 
 />
    <glyph glyph-name="OE" unicode="&#x152;" 
 />
    <glyph glyph-name="quoteleft" unicode="&#x2018;" 
 />
    <glyph glyph-name="quoteright" unicode="&#x2019;" 
 />
    <glyph glyph-name="quotedblleft" unicode="&#x201c;" 
 />
    <glyph glyph-name="quotedblright" unicode="&#x201d;" 
 />
    <glyph glyph-name="bullet" unicode="&#x2022;" 
 />
    <glyph glyph-name="endash" unicode="&#x2013;" 
 />
    <glyph glyph-name="emdash" unicode="&#x2014;" 
 />
    <glyph glyph-name="tilde" unicode="&#x2dc;" 
 />
    <glyph glyph-name="trademark" unicode="&#x2122;" 
 />
    <glyph glyph-name="scaron" unicode="&#x161;" 
 />
    <glyph glyph-name="guilsinglright" unicode="&#x203a;" 
 />
    <glyph glyph-name="oe" unicode="&#x153;" 
 />
    <glyph glyph-name="Ydieresis" unicode="&#x178;" 
 />
    <glyph glyph-name="nonbreakingspace" unicode="&#xa0;" horiz-adv-x="500" 
 />
    <glyph glyph-name="exclamdown" unicode="&#xa1;" 
 />
    <glyph glyph-name="cent" unicode="&#xa2;" 
 />
    <glyph glyph-name="sterling" unicode="&#xa3;" 
 />
    <glyph glyph-name="currency" unicode="&#xa4;" 
 />
    <glyph glyph-name="yen" unicode="&#xa5;" 
 />
    <glyph glyph-name="brokenbar" unicode="&#xa6;" 
 />
    <glyph glyph-name="section" unicode="&#xa7;" 
 />
    <glyph glyph-name="dieresis" unicode="&#xa8;" 
 />
    <glyph glyph-name="copyright" unicode="&#xa9;" 
 />
    <glyph glyph-name="ordfeminine" unicode="&#xaa;" 
 />
    <glyph glyph-name="guillemotleft" unicode="&#xab;" 
 />
    <glyph glyph-name="logicalnot" unicode="&#xac;" 
 />
    <glyph glyph-name="minus" unicode="&#xad;" 
 />
    <glyph glyph-name="registered" unicode="&#xae;" 
 />
    <glyph glyph-name="macron" unicode="&#xaf;" 
 />
    <glyph glyph-name="degree" unicode="&#xb0;" 
 />
    <glyph glyph-name="plusminus" unicode="&#xb1;" 
 />
    <glyph glyph-name="twosuperior" unicode="&#xb2;" 
 />
    <glyph glyph-name="threesuperior" unicode="&#xb3;" 
 />
    <glyph glyph-name="acute" unicode="&#xb4;" 
 />
    <glyph glyph-name="mu" unicode="&#xb5;" 
 />
    <glyph glyph-name="paragraph" unicode="&#xb6;" 
 />
    <glyph glyph-name="cedilla" unicode="&#xb8;" 
 />
    <glyph glyph-name="onesuperior" unicode="&#xb9;" 
 />
    <glyph glyph-name="ordmasculine" unicode="&#xba;" 
 />
    <glyph glyph-name="guillemotright" unicode="&#xbb;" 
 />
    <glyph glyph-name="onequarter" unicode="&#xbc;" 
 />
    <glyph glyph-name="onehalf" unicode="&#xbd;" 
 />
    <glyph glyph-name="threequarters" unicode="&#xbe;" 
 />
    <glyph glyph-name="questiondown" unicode="&#xbf;" 
 />
    <glyph glyph-name="Agrave" unicode="&#xc0;" 
 />
    <glyph glyph-name="Aacute" unicode="&#xc1;" 
 />
    <glyph glyph-name="Acircumflex" unicode="&#xc2;" 
 />
    <glyph glyph-name="Atilde" unicode="&#xc3;" 
 />
    <glyph glyph-name="Adieresis" unicode="&#xc4;" 
 />
    <glyph glyph-name="Aring" unicode="&#xc5;" 
 />
    <glyph glyph-name="AE" unicode="&#xc6;" 
 />
    <glyph glyph-name="Ccedilla" unicode="&#xc7;" 
 />
    <glyph glyph-name="Egrave" unicode="&#xc8;" 
 />
    <glyph glyph-name="Eacute" unicode="&#xc9;" 
 />
    <glyph glyph-name="Ecircumflex" unicode="&#xca;" 
 />
    <glyph glyph-name="Edieresis" unicode="&#xcb;" 
 />
    <glyph glyph-name="Igrave" unicode="&#xcc;" 
 />
    <glyph glyph-name="Iacute" unicode="&#xcd;" 
 />
    <glyph glyph-name="Icircumflex" unicode="&#xce;" 
 />
    <glyph glyph-name="Idieresis" unicode="&#xcf;" 
 />
    <glyph glyph-name="Eth" unicode="&#xd0;" 
 />
    <glyph glyph-name="Ntilde" unicode="&#xd1;" 
 />
    <glyph glyph-name="Ograve" unicode="&#xd2;" 
 />
    <glyph glyph-name="Oacute" unicode="&#xd3;" 
 />
    <glyph glyph-name="Ocircumflex" unicode="&#xd4;" 
 />
    <glyph glyph-name="Otilde" unicode="&#xd5;" 
 />
    <glyph glyph-name="Odieresis" unicode="&#xd6;" 
 />
    <glyph glyph-name="multiply" unicode="&#xd7;" 
 />
    <glyph glyph-name="Oslash" unicode="&#xd8;" 
 />
    <glyph glyph-name="Ugrave" unicode="&#xd9;" 
 />
    <glyph glyph-name="Uacute" unicode="&#xda;" 
 />
    <glyph glyph-name="Ucircumflex" unicode="&#xdb;" 
 />
    <glyph glyph-name="Udieresis" unicode="&#xdc;" 
 />
    <glyph glyph-name="Yacute" unicode="&#xdd;" 
 />
    <glyph glyph-name="Thorn" unicode="&#xde;" 
 />
    <glyph glyph-name="germandbls" unicode="&#xdf;" 
 />
    <glyph glyph-name="agrave" unicode="&#xe0;" 
 />
    <glyph glyph-name="aacute" unicode="&#xe1;" 
 />
    <glyph glyph-name="acircumflex" unicode="&#xe2;" 
 />
    <glyph glyph-name="atilde" unicode="&#xe3;" 
 />
    <glyph glyph-name="adieresis" unicode="&#xe4;" 
 />
    <glyph glyph-name="aring" unicode="&#xe5;" 
 />
    <glyph glyph-name="ae" unicode="&#xe6;" 
 />
    <glyph glyph-name="ccedilla" unicode="&#xe7;" 
 />
    <glyph glyph-name="egrave" unicode="&#xe8;" 
 />
    <glyph glyph-name="eacute" unicode="&#xe9;" 
 />
    <glyph glyph-name="ecircumflex" unicode="&#xea;" 
 />
    <glyph glyph-name="edieresis" unicode="&#xeb;" 
 />
    <glyph glyph-name="igrave" unicode="&#xec;" 
 />
    <glyph glyph-name="iacute" unicode="&#xed;" 
 />
    <glyph glyph-name="icircumflex" unicode="&#xee;" 
 />
    <glyph glyph-name="idieresis" unicode="&#xef;" 
 />
    <glyph glyph-name="eth" unicode="&#xf0;" 
 />
    <glyph glyph-name="ntilde" unicode="&#xf1;" 
 />
    <glyph glyph-name="ograve" unicode="&#xf2;" 
 />
    <glyph glyph-name="oacute" unicode="&#xf3;" 
 />
    <glyph glyph-name="ocircumflex" unicode="&#xf4;" 
 />
    <glyph glyph-name="otilde" unicode="&#xf5;" 
 />
    <glyph glyph-name="odieresis" unicode="&#xf6;" 
 />
    <glyph glyph-name="divide" unicode="&#xf7;" 
 />
    <glyph glyph-name="oslash" unicode="&#xf8;" 
 />
    <glyph glyph-name="ugrave" unicode="&#xf9;" 
 />
    <glyph glyph-name="uacute" unicode="&#xfa;" 
 />
    <glyph glyph-name="ucircumflex" unicode="&#xfb;" 
 />
    <glyph glyph-name="udieresis" unicode="&#xfc;" 
 />
    <glyph glyph-name="yacute" unicode="&#xfd;" 
 />
    <glyph glyph-name="thorn" unicode="&#xfe;" 
 />
    <glyph glyph-name="ydieresis" unicode="&#xff;" 
 />
    <glyph glyph-name="Zcaron" unicode="&#x17d;" 
 />
    <glyph glyph-name="zcaron" unicode="&#x17e;" 
 />
    <glyph glyph-name="c289" unicode="&#x13f;" 
 />
    <glyph glyph-name="c322" unicode="&#x3b1;" 
 />
    <glyph glyph-name="c323" unicode="&#x3b4;" 
 />
    <glyph glyph-name="c360" unicode="&#x250c;" 
 />
    <glyph glyph-name="c386" unicode="&#x2561;" 
 />
  </font>
</defs>
</svg>
